2014/09/06 Arrington, VA Pro-shot Webcast

Tom Petty and the Heartbreakers
LOCKN’
Oak Ridge Estate
Arrington, Virginia
Saturday, September 6, 2014
(broadcast date: May 16, 2020)

Lineage: “LIVE” Webcast -> downloaded .ts segments (batch script) -> TSSplitter (join) -> FFmpeg (edit) -> MKVToolNix GUI -> .mkv
Video: MPEG4 Video (H264) 1280×720 16:9 3380 Kbps 29.97 fps
Audio: AAC 132 Kbps 44.1 KHz stereo

A “FANS” livestream.

Setlist:
So You Want to Be a Rock ‘n’ Roll Star (The Byrds cover)
Mary Jane’s Last Dance
American Dream Plan B
Into the Great Wide Open
Forgotten Man
I Won’t Back Down
Free Fallin’
-band introductions-
A Woman in Love (It’s Not Me)
U Get Me High
Rebels
Yer So Bad
Learning to Fly
Shadow People
I Should Have Known It
Refugee
Runnin’ Down a Dream

Encore:
You Wreck Me
American Girl

TRT = 01:44:11

Note: This is a perfect capture of the webcast.
No imperfections were inherent in the broadcast.

Captured and uploaded to DIME by indykid.

MediaInfo:
General
Unique ID : 64321371232384485587559186787371442884 (0x3063D8722ABE7DCB651318E3B7C9E2C4)
Complete name : Tom Petty and the Heartbreakers – 2014-09-06 LOCKN’, Oak Ridge Estate, Arrington, VA [720p]\Tom Petty and the Heartbreakers – 2014-09-06 LOCKN’, Arrington, Virginia [720p].mkv
Format : Matroska
Format version : Version 4
File size : 2.56 GiB
Duration : 1 h 44 min
Overall bit rate mode : Variable
Overall bit rate : 3 512 kb/s
Encoded date : UTC 2020-05-17 07:25:49
Writing application : mkvmerge v31.0.0 (‘Dolores In A Shoestand’) 64-bit
Writing library : libebml v1.3.6 + libmatroska v1.4.9

Video
ID : 1
Format : AVC
Format/Info : Advanced Video Codec
Format profile : Main@L3.1
Format settings : 1 Ref Frames
Format settings, CABAC : No
Format settings, RefFrames : 1 frame
Codec ID : V_MPEG4/ISO/AVC
Duration : 1 h 44 min
Bit rate mode : Variable
Bit rate : 3 378 kb/s
Maximum bit rate : 3 584 kb/s
Width : 1 280 pixels
Height : 720 pixels
Display aspect ratio : 16:9
Frame rate mode : Variable
Frame rate : 29.970 FPS
Color space : YUV
Chroma subsampling : 4:2:0
Bit depth : 8 bits
Scan type : Progressive
Bits/(Pixel*Frame) : 0.122
Stream size : 2.46 GiB (96%)
Default : Yes
Forced : No

Audio
ID : 2
Format : AAC LC
Format/Info : Advanced Audio Codec Low Complexity
Codec ID : A_AAC-2
Duration : 1 h 44 min
Bit rate : 132 kb/s
Channel(s) : 2 channels
Channel layout : L R
Sampling rate : 44.1 kHz
Frame rate : 43.066 FPS (1024 SPF)
Compression mode : Lossy
Delay relative to video : -1 s 450 ms
Stream size : 98.0 MiB (4%)
Default : Yes
Forced : No

Captured and uploaded to DIME by indykid.

Download

Leave a Reply

Fill in your details below or click an icon to log in:

WordPress.com Logo

You are commenting using your WordPress.com account. Log Out /  Change )

Google photo

You are commenting using your Google account. Log Out /  Change )

Twitter picture

You are commenting using your Twitter account. Log Out /  Change )

Facebook photo

You are commenting using your Facebook account. Log Out /  Change )

Connecting to %s

This site uses Akismet to reduce spam. Learn how your comment data is processed.