2008/02/03 Glendale, AZ PRO 1080p WEB

Tom Petty and the Heartbreakers
Super Bowl XLII Halftime Show
University of Phoenix Stadium
Glendale, Arizona
February 3, 2008

Lineage: NFL Webcast -> FFmpeg -> MKVToolNix GUI -> .mkv
Video: MPEG4 Video (H264) 1920×1080 16:9 frame/4:3 picture 2010 Kbps 29.97 fps
Audio: AAC 128 Kbps 44.1 KHz stereo

In honor of rock icon Tom Petty’s passing the NFL has shared his Super Bowl 42
Halftime Show from 2008. RIP Tom Petty – hope to see you soon.

Setlist:
American Girl
I Won’t Back Down
Free Fallin’
Runnin’ Down a Dream

TRT = 00:12:25

Note: This is a perfect capture of the webcast. Any imperfections, if present, were inherent in the broadcast.

Captured and uploaded to DIME by indykid.

MediaInfo:
General
Unique ID : 187780001269333162152699288267339549027 (0x8D451CDC8A2751C396ABA3081BFF4963)
Complete name : Tom Petty and the Heartbreakers – 2008-02-03 Super Bowl XLII Halftime Show [1080p].mkv
Format : Matroska
Format version : Version 4 / Version 2
File size : 190 MiB
Duration : 12 min 25 s
Overall bit rate : 2 138 kb/s
Encoded date : UTC 2017-10-11 04:48:32
Writing application : mkvmerge v16.0.0 (‘Protest’) 64-bit
Writing library : libebml v1.3.5 + libmatroska v1.4.8

Video
ID : 1
Format : AVC
Format/Info : Advanced Video Codec
Format profile : High@L4
Format settings, CABAC : Yes
Format settings, ReFrames : 3 frames
Codec ID : V_MPEG4/ISO/AVC
Duration : 12 min 25 s
Bit rate : 2 010 kb/s
Width : 1 920 pixels
Height : 1 080 pixels
Display aspect ratio : 16:9
Frame rate mode : Constant
Frame rate : 29.970 (30000/1001) FPS
Color space : YUV
Chroma subsampling : 4:2:0
Bit depth : 8 bits
Scan type : Progressive
Bits/(Pixel*Frame) : 0.032
Stream size : 179 MiB (94%)
Default : Yes
Forced : No
Color range : Limited
Color primaries : BT.709
Transfer characteristics : BT.709
Matrix coefficients : BT.709

Audio
ID : 2
Format : AAC
Format/Info : Advanced Audio Codec
Format profile : LC
Codec ID : A_AAC
Duration : 12 min 25 s
Bit rate : 126 kb/s
Channel(s) : 2 channels
Channel positions : Front: L R
Sampling rate : 44.1 kHz
Frame rate : 43.066 FPS (1024 spf)
Compression mode : Lossy
Stream size : 11.2 MiB (6%)
Default : Yes
Forced : No

Captured and uploaded to DIME by indykid.

Download

Leave a Reply

Fill in your details below or click an icon to log in:

WordPress.com Logo

You are commenting using your WordPress.com account. Log Out /  Change )

Google photo

You are commenting using your Google account. Log Out /  Change )

Twitter picture

You are commenting using your Twitter account. Log Out /  Change )

Facebook photo

You are commenting using your Facebook account. Log Out /  Change )

Connecting to %s

This site uses Akismet to reduce spam. Learn how your comment data is processed.